Jump to content
Sign in to follow this  

Recommended Posts

Hello:

 

FlixGrab is an excellent program, in which you can download movies, series and documentaries, from the netflix platform.

The program is very easy to use, just put the link to the netflix video, the program will detect it and you will have several options available which include:

 

- Download the audio that contains the chapter, for example, english, spanish ect.
- Download the video in several resolutions, for example, 480p, 720p and 1080p.
- Download queue (payment version)

 

The program has the free version and the payment.

 

In the free you can download any content without any problem.

In the payment has the option of download queue, you can download without interruptions.

 

But before you can do all this, you must log in with a netflix account.

In this link https://www.freegrabapp.com/flixgrab
It shows a small tutorial on how to use it and the link to download it

 

If they have any problem with the download, when downloading anything
they have a page to report the errors.

https://www.freegrabapp.com/bug-reporting

 

The creators of this great application give quick solutions to problems.

In addition to this they have other programs that may interest them.


P.S. Who can donate, do it

 

Thank you for your attention.

 

Share this post


Link to post
Share on other sites

Create an account or sign in to comment

You need to be a member in order to leave a comment

Create an account

Sign up for a new account in our community. It's easy!

Register a new account

Sign in

Already have an account? Sign in here.

Sign In Now
Sign in to follow this  

  • Recently Browsing   0 members

    No registered users viewing this page.


  • Similar Content

    • By MGPD
      Does anybody know how can I tell if a release is in fact, a real untouched Netflix rip or a re-encoded FlixGrab+ rip.
      For example, this release of, "How the Grinch Stole Christmas":
       
      General
      Unique ID                                : 202831106586948822090528849552299365824 (0x9897D9A59628C5EC4CBC04D71B5595C0)
      Complete name                            : C:\Users\MGPD\Desktop\How.The.Grinch.Stole.Christmas.2000.1080p.WEB-DL.H264.AC3-eSc\How.The.Grinch.Stole.Christmas.2000.1080p.WEB-DL.H264.AC3-eSc.mkv
      Format                                   : Matroska
      Format version                           : Version 4 / Version 2
      File size                                : 4.35 GiB
      Duration                                 : 1 h 44 min
      Overall bit rate                         : 5 936 kb/s
      Encoded date                             : UTC 2018-12-19 00:29:29
      Writing application                      : mkvmerge v22.0.0 ('At The End Of The World') 64-bit
      Writing library                          : libebml v1.3.5 + libmatroska v1.4.8
      Video
      ID                                       : 1
      Format                                   : AVC
      Format/Info                              : Advanced Video Codec
      Format profile                           : Main@L4
      Format settings, CABAC                   : Yes
      Format settings, ReFrames                : 3 frames
      Codec ID                                 : V_MPEG4/ISO/AVC
      Duration                                 : 1 h 44 min
      Bit rate                                 : 5 550 kb/s
      Width                                    : 1 920 pixels
      Height                                   : 1 080 pixels
      Display aspect ratio                     : 16:9
      Frame rate mode                          : Constant
      Frame rate                               : 23.976 (24000/1001) FPS
      Color space                              : YUV
      Chroma subsampling                       : 4:2:0
      Bit depth                                : 8 bits
      Scan type                                : Progressive
      Bits/(Pixel*Frame)                       : 0.112
      Stream size                              : 4.07 GiB (93%)
      Default                                  : Yes
      Forced                                   : No
      Audio
      ID                                       : 2
      Format                                   : AC-3
      Format/Info                              : Audio Coding 3
      Format settings, Endianness              : Big
      Codec ID                                 : A_AC3
      Duration                                 : 1 h 44 min
      Bit rate mode                            : Constant
      Bit rate                                 : 384 kb/s
      Channel(s)                               : 6 channels
      Channel positions                        : Front: L C R, Side: L R, LFE
      Sampling rate                            : 48.0 kHz
      Frame rate                               : 31.250 FPS (1536 spf)
      Bit depth                                : 16 bits
      Compression mode                         : Lossy
      Delay relative to video                  : -41 ms
      Stream size                              : 288 MiB (6%)
      Language                                 : English
      Service kind                             : Complete Main
      Default                                  : Yes
      Forced                                   : No
      Text
      ID                                       : 3
      Format                                   : UTF-8
      Codec ID                                 : S_TEXT/UTF8
      Codec ID/Info                            : UTF-8 Plain Text
      Duration                                 : 1 h 43 min
      Bit rate                                 : 61 b/s
      Count of elements                        : 1861
      Stream size                              : 46.6 KiB (0%)
      Language                                 : English
      Default                                  : Yes
      Forced                                   : No
      (I actually don't know from where this was ripped, neither the post where I found it say it, but what makes me think it's in fact from Netflix, is the 3 "ReFrames", and because the subtitles at the end of the film, said this: 
      "Subtitles downloaded with 'Netflix subtitle downloader' UserScript by Tithen-Firion.", so I assumed the movie was actually ripped from Netflix, because of those things).
       
      So, my question is: Is this a FlixGrab+ or an untouched Netflix rip? What else can I do to know once and for all?
       
      One thing that makes me doubt it's an untouched rip, is that it has a Constant Bitrate, and to my knowledge Netflix uses Variable Bitrate for their videos, also, the audio is 384 kb/s and I though Netflix now uses 640 kb/s for 5.1 or Atmos, (which in this case, doesn't apply).
       
      I'd appreciate the help, thanks!
       
       
    • By Revoltado
      Friends, I'm doing my tool to download Netflix file could you take a look and tell me what's missing? I'm looking for everything on closed sites and the guy who sells me does not respond anymore..rsrs so I'm doing it on my own if you could help me I'm grateful https://www.mediafire.com/file/m28uwxw1be0h34v/Tool_NF.rar/file
    • By XJVictor
      I'm a huge Scooby fan, and i love to watch all content... 😍 so i want to know: what YOUR favorite movie???
       
      (this is my #1 post 😂)
    • By Name-is-Ti
      I was searching for some cartoons to download and watch, clicked on the mega link but it says the folders unavailable. Clicked on another one same message, I even looked at some old threads for some toons but nothing. Did something happened to MEGA with all the unavailable files?
×