Jump to content
clutchins

Official Dragon Ball Kametsu Threads Index (Updated Jan 9, 2015)

Recommended Posts

On 18/08/2017 at 1:19 PM, MadSpecialist said:

 

There's a thread by @Arian as well as a link for them all by @ZuRi_786, if I'm not mistaken.

Thanks so much for the links, but im just a bit confused. Nearly all episodes I've watched as a kid when first broadcasted had the Rock the dragon intro theme. More importantly, all the episodes I've watched had the (what I call) ocean dub or some sort of original broadcasting that are nowhere to be found. This goes for every saga. The 01-54 episodes that have been posted numerous times are correct, however the rest is different. I've done research but im just left confused on whether anyone has those original broadcasts. Can anyone please help me out? Forgive my ignorance please. 

Share this post


Link to post
13 hours ago, Y0020 said:

Thanks so much for the links, but im just a bit confused. Nearly all episodes I've watched as a kid when first broadcasted had the Rock the dragon intro theme. More importantly, all the episodes I've watched had the (what I call) ocean dub or some sort of original broadcasting that are nowhere to be found. This goes for every saga. The 01-54 episodes that have been posted numerous times are correct, however the rest is different. I've done research but im just left confused on whether anyone has those original broadcasts. Can anyone please help me out? Forgive my ignorance please. 

 

No problem. From what I've read, the Ocean dub of Dragon Ball Z's episodes comprises of the beginning until Goku arrived on Namek and continued at Trunks' introduction until the end. The broadcast you saw supposedly could've also included Funimation's dub for some of the episodes.

Share this post


Link to post
On 26/8/2017 at 0:34 PM, MadSpecialist said:

 

Thank you, At last I could find these torrents http://uptobox.com/zy4g2i0nvy4z

 

But the bad news are that I couldn´t find some volumes :/

 

Screenshots of that torrents and file info:

 

nbp5yu.jpg

ek56u.jpg

2v2w5yc.jpg

 

 

File info:

 

Complete name               : E:\02. Tenkaichi Budokai Saga\[Pendekar] Dragon Ball - 026 [Dragon Box] [Dual Audio].mkv
Format                      : Matroska
Format version              : Version 4 / Version 2
File size                   : 835 MiB
Duration                    : 24 min 39 s
Overall bit rate            : 4 733 kb/s
Encoded date                : UTC 2016-06-24 22:31:31
Writing application         : mkvmerge v9.0.1 ('Obstacles') 64bit
Writing library             : libebml v1.3.3 + libmatroska v1.4.4

Video
ID                          : 1
Format                      : AVC
Format/Info                 : Advanced Video Codec
Format profile              : High@L4.1
Format settings, CABAC      : Yes
Format settings, ReFrames   : 16 frames
Codec ID                    : V_MPEG4/ISO/AVC
Duration                    : 24 min 39 s
Bit rate                    : 3 897 kb/s
Width                       : 720 pixels
Height                      : 480 pixels
Display aspect ratio        : 4:3
Frame rate mode             : Constant
Frame rate                  : 23.976 (24000/1001) FPS
Color space                 : YUV
Chroma subsampling          : 4:2:0
Bit depth                   : 8 bits
Scan type                   : Progressive
Bits/(Pixel*Frame)          : 0.470
Stream size                 : 687 MiB (82%)
Title                       : [Pendekar] Dragon Ball - 026 [Dragon Box] [Dual Audio]
Writing library             : x264 core 125 r2200 999b753
Encoding settings           : cabac=1 / ref=16 / deblock=1:-2:-2 / analyse=0x3:0x113 / me=umh / subme=9 / psy=1 / psy_rd=1.00:0.00 / mixed_ref=1 / me_range=24 / chroma_me=1 / trellis=2 / 8x8dct=1 / cqm=0 / deadzone=21,11 / fast_pskip=0 / chroma_qp_offset=-2 / threads=3 / lookahead_threads=1 / sliced_threads=0 / nr=0 / decimate=1 / interlaced=0 / bluray_compat=0 / constrained_intra=0 / bframes=9 / b_pyramid=2 / b_adapt=2 / b_bias=0 / direct=3 / weightb=1 / open_gop=0 / weightp=2 / keyint=240 / keyint_min=22 / scenecut=40 / intra_refresh=0 / rc=crf / mbtree=0 / crf=16.0 / qcomp=0.80 / qpmin=10 / qpmax=38 / qpstep=4 / ip_ratio=1.40 / pb_ratio=1.30 / aq=1:1.00
Language                    : Japanese
Default                     : Yes
Forced                      : No

Audio #1
ID                          : 2
Format                      : AC-3
Format/Info                 : Audio Coding 3
Format settings, Endianness : Big
Codec ID                    : A_AC3
Duration                    : 24 min 38 s
Bit rate mode               : Constant
Bit rate                    : 448 kb/s
Channel(s)                  : 2 channels
Channel positions           : Front: L R
Sampling rate               : 48.0 kHz
Frame rate                  : 31.250 FPS (1536 spf)
Bit depth                   : 16 bits
Compression mode            : Lossy
Stream size                 : 79.0 MiB (9%)
Title                       : Japanese 2.0 Audio
Language                    : Japanese
Service kind                : Complete Main
Default                     : Yes
Forced                      : No

Audio #2
ID                          : 3
Format                      : AC-3
Format/Info                 : Audio Coding 3
Format settings, Endianness : Big
Codec ID                    : A_AC3
Duration                    : 24 min 38 s
Bit rate mode               : Constant
Bit rate                    : 384 kb/s
Channel(s)                  : 2 channels
Channel positions           : Front: L R
Sampling rate               : 48.0 kHz
Frame rate                  : 31.250 FPS (1536 spf)
Bit depth                   : 16 bits
Compression mode            : Lossy
Stream size                 : 67.7 MiB (8%)
Title                       : English 2.0 Audio
Language                    : English
Service kind                : Complete Main
Default                     : No
Forced                      : No

Text #1
ID                          : 4
Format                      : VobSub
Muxing mode                 : zlib
Codec ID                    : S_VOBSUB
Codec ID/Info               : Picture based subtitle format used on DVDs
Duration                    : 24 min 27 s
Bit rate                    : 2 472 b/s
Count of elements           : 261
Stream size                 : 443 KiB (0%)
Title                       : VobSub Subtitles (Japanese Dub)
Language                    : English
Default                     : Yes
Forced                      : No

Text #2
ID                          : 5
Format                      : UTF-8
Codec ID                    : S_TEXT/UTF8
Codec ID/Info               : UTF-8 Plain Text
Duration                    : 24 min 27 s
Bit rate                    : 57 b/s
Count of elements           : 261
Stream size                 : 10.4 KiB (0%)
Title                       : SRT Subtitles (Japanese Dub)
Language                    : English
Default                     : No
Forced                      : No

Text #3
ID                          : 6
Format                      : UTF-8
Codec ID                    : S_TEXT/UTF8
Codec ID/Info               : UTF-8 Plain Text
Duration                    : 21 min 32 s
Bit rate                    : 2 b/s
Count of elements           : 10
Stream size                 : 434 Bytes (0%)
Title                       : Titles and Signs (English Dub)
Language                    : English
Default                     : No
Forced                      : No

Menu
00:00:00.000                : en:Opening
00:01:48.650                : en:A-Part
00:12:41.969                : en:B-Part
00:22:31.558                : en:Ending
00:24:08.655                : en:Preview

 

Edited by Freezer

Share this post


Link to post

sorry for noobish question, but what's the "best" (I know subjective) and most complete set of rips to get for db and dbz right now?

 

I followed some of the links and most of the ultimate projects are dead/abandoned, so I'm left with trying to figure out what to spend my bandwidth on and what to skip.

 

thx!

Share this post


Link to post
35 minutes ago, 5knuckleshuffle said:

sorry for noobish question, but what's the "best" (I know subjective) and most complete set of rips to get for db and dbz right now?

 

I followed some of the links and most of the ultimate projects are dead/abandoned, so I'm left with trying to figure out what to spend my bandwidth on and what to skip.

 

thx!

 

In my opinion...

 

Dragon Ball

Or

Dragon Ball Z

  • Like 1

Share this post


Link to post
1 minute ago, MadSpecialist said:

 

thanks.  I'll see about giving some of those a whirl

 you know of any projects/mega links on here that are worth a download?

Share this post


Link to post
Just now, 5knuckleshuffle said:

 

thanks.  I'll see about giving some of those a whirl

 you know of any projects/mega links on here that are worth a download?

 

No problem and not that I'm aware of I'm afraid, unless you want to watch Dragon Ball with reduced filler:

 

Share this post


Link to post
1 minute ago, MadSpecialist said:

 

No problem and not that I'm aware of I'm afraid, unless you want to watch Dragon Ball with reduced filler:

 

nah I'll pass.  Thanks for the suggestions.  It's a shame all the db/dbz activities died here, they seemed to have a lot of backing/interest

Share this post


Link to post

Create an account or sign in to comment

You need to be a member in order to leave a comment

Create an account

Sign up for a new account in our community. It's easy!

Register a new account

Sign in

Already have an account? Sign in here.

Sign In Now

  • Recently Browsing   0 members

  • Similar Content

    • By Kakarot Manrai
      Does anyone have DBNL's old Dragon Ball encodes (not the DR ones) but the saga box set ones along with moves 2-4
      specifically this https://nyaa.si/view/273412 but this torrent is dead, f any one has them please upload it mega or make a torrent of it
    • By Red_Drag0n
      I'm looking for Dragon Ball Z / GT / Kai episodes in 480p. The ones that are uncut & are from the Dragon Box.
      Mr. Kimiko already uploaded DBZ and GT but those links are down
      Also user iBreaker uploaded all DBZ episodes. Those links are still working but they are in 1080p. The thing is, my PC is old and lags while playing 1080p.
      So i was wondering if any one of you guys could upload them in 480p. Thanks a lot.
       
    • By Gingka Vegeta
      Hello, anyone have the Dragon Ball Z Kai Nicktoons TV-Rip from C-W Version?
    • By Metrunui
      Look man, I just want a higher quality season 1, the saiyan saga, of DBZ abridged. The episodes are shorter, and I'm pretty sure the dbz level sets should work well. I want the definitive version of dragon ball z to be in a higher definition than 360p.
×