Jump to content

MGPD

Crusader
  • Content Count

    55
  • Joined

  • Last visited

Community Reputation

39 Accepted

1 Follower

About MGPD

  • Rank
    Hedge Knight

Profile Information

  • Gender
    Male

Recent Profile Visitors

The recent visitors block is disabled and is not being shown to other users.

  1. Thanks @Dexter1998, I didn't know about the newest plan thing for the audio, it's nice to know. Regarding the subs, I downloaded FlixGrab+, (I even tried to rip the movie with it, and compare the resulting file with this release, but I got a video parsing error), and the program has an option for selecting subs available with the movie from Netflix, that proves they too, can download subs from movies, so I think the subs can't be taken as indicators either
  2. UPDATE: Now I'm sure it's a Netflix rip, as this release has more image both up and down (1.78:1 aspect ratio), and Netflix uses the same version (already checked it up myself). And this 1.78:1 version isn't available anywhere else in HD, because the Blu-ray and iTunes versions have the original ratio with a little less picture up and down (1.85:1 aspect ratio), anyway, the question remains. Is it an untouched rip? Or it isn't?
  3. Does anybody know how can I tell if a release is in fact, a real untouched Netflix rip or a re-encoded FlixGrab+ rip. For example, this release of, "How the Grinch Stole Christmas": General Unique ID : 202831106586948822090528849552299365824 (0x9897D9A59628C5EC4CBC04D71B5595C0) Complete name : C:\Users\MGPD\Desktop\How.The.Grinch.Stole.Christmas.2000.1080p.WEB-DL.H264.AC3-eSc\How.The.Grinch.Stole.Christmas.2000.1080p.WEB-DL.H264.AC3-eSc.mkv Format : Matroska Format version : Version 4 / Version 2 File size : 4.35 GiB Duration : 1 h 44 min Overall bit rate : 5 936 kb/s Encoded date : UTC 2018-12-19 00:29:29 Writing application : mkvmerge v22.0.0 ('At The End Of The World') 64-bit Writing library : libebml v1.3.5 + libmatroska v1.4.8 Video ID : 1 Format : AVC Format/Info : Advanced Video Codec Format profile : Main@L4 Format settings, CABAC : Yes Format settings, ReFrames : 3 frames Codec ID : V_MPEG4/ISO/AVC Duration : 1 h 44 min Bit rate : 5 550 kb/s Width : 1 920 pixels Height : 1 080 pixels Display aspect ratio : 16:9 Frame rate mode : Constant Frame rate : 23.976 (24000/1001) FPS Color space : YUV Chroma subsampling : 4:2:0 Bit depth : 8 bits Scan type : Progressive Bits/(Pixel*Frame) : 0.112 Stream size : 4.07 GiB (93%) Default : Yes Forced : No Audio ID : 2 Format : AC-3 Format/Info : Audio Coding 3 Format settings, Endianness : Big Codec ID : A_AC3 Duration : 1 h 44 min Bit rate mode : Constant Bit rate : 384 kb/s Channel(s) : 6 channels Channel positions : Front: L C R, Side: L R, LFE Sampling rate : 48.0 kHz Frame rate : 31.250 FPS (1536 spf) Bit depth : 16 bits Compression mode : Lossy Delay relative to video : -41 ms Stream size : 288 MiB (6%) Language : English Service kind : Complete Main Default : Yes Forced : No Text ID : 3 Format : UTF-8 Codec ID : S_TEXT/UTF8 Codec ID/Info : UTF-8 Plain Text Duration : 1 h 43 min Bit rate : 61 b/s Count of elements : 1861 Stream size : 46.6 KiB (0%) Language : English Default : Yes Forced : No (I actually don't know from where this was ripped, neither the post where I found it say it, but what makes me think it's in fact from Netflix, is the 3 "ReFrames", and because the subtitles at the end of the film, said this: "Subtitles downloaded with 'Netflix subtitle downloader' UserScript by Tithen-Firion.", so I assumed the movie was actually ripped from Netflix, because of those things). So, my question is: Is this a FlixGrab+ or an untouched Netflix rip? What else can I do to know once and for all? One thing that makes me doubt it's an untouched rip, is that it has a Constant Bitrate, and to my knowledge Netflix uses Variable Bitrate for their videos, also, the audio is 384 kb/s and I though Netflix now uses 640 kb/s for 5.1 or Atmos, (which in this case, doesn't apply). I'd appreciate the help, thanks!
  4. Well, in that case, I think I'll wait to see if everything is included, and if it's not, I'll keep both
  5. Yeah, I think I will, considering that's pretty much redundant to have them both
  6. It'd be great if they do include DC Universe in it. As for me, the inclusion of Boomerang is both GREAT and...a bummer, since I already have a membership for the two of them, but the good thing is that VRV is extremely easy to rip, (and I mean, REALLY easy), and also, VRV uses a greater Bitrate than the Boomerang site, meaning that shows will be easier to rip and in better quality than the original itself, (how ironic Lol). Overall, it's a very good decision from Warner, and the price IMO is absolutely great!
  7. Yeah, Monsters Unleashed is imo the best Live Action SD movie; although it's not the greatest movie out there xD
  8. Mine are (in this order): 1.Scooby-Doo on Zombie Island 2.Scooby-Doo and the Witch's Ghost 3.Scooby-Doo an the Cyber Chase Which are yours?
×